Free Porn Share - XXXShare.net
2015 (ea) 7th 2014 alexis amateur anal anita anjelica bay beautiful bianca bimbo black blonde blowjob bobs busty casting cock collection crazier cream cute czech deep dick dirty fetish friend friends fuck fucked fucking girl girls gloria guerlain hard hardcore interracial james kiki lesbian love loves madonna melanie mia milf monroe natasha naughty nicole office part porn pussy scene sexy sweet taylor teen teens tits video videos white young [2014]

Go Back   Free Porn Share - XXXShare.net > Adult videos > Clips,Short Movies
Register FAQ Members List Calendar Search Today's Posts Mark Forums Read

Clips,Short Movies Short videos and movies duration less than 1 hour

Reply
 
LinkBack Thread Tools Search this Thread Rate Thread Display Modes
Old 11-30-2012, 07:11 PM   #1 (permalink)
Posters
 
Join Date: Jun 2012
Posts: 680
Rep Power: 8
vargamester is on a distinguished road
Default Big Tits at Work - Jessica,Julia,Jenna,Kirsten

Big Tits at Work - Jessica,Julia,Jenna,Kirsten





General
Format : MPEG-4
Format profile : Base Media
Codec ID : isom
File size : 266 MiB
Duration : 31mn 14s
Overall bit rate : 1 192 Kbps
Writing application : Lavf54.37.100

Video
ID : 1
Format : AVC
Format/Info : Advanced Video Codec
Format profile : [email protected]
Format settings, CABAC : Yes
Format settings, ReFrames : 5 frames
Codec ID : avc1
Codec ID/Info : Advanced Video Coding
Duration : 31mn 14s
Bit rate : 1 000 Kbps
Width : 854 pixels
Height : 480 pixels
Display aspect ratio : 16:9
Frame rate mode : Constant
Frame rate : 29.970 fps
Color space : YUV
Chroma subsampling : 4:2:0
Bit depth : 8 bits
Scan type : Progressive
Bits/(Pixel*Frame) : 0.081
Stream size : 224 MiB (84%)

Audio
ID : 2
Format : AAC
Format/Info : Advanced Audio Codec
Format profile : LC
Codec ID : 40
Duration : 31mn 14s
Duration_LastFrame : 33ms
Bit rate mode : Constant
Bit rate : 128 Kbps
Channel(s) : 2 channels
Channel positions : Front: L R
Sampling rate : 48.0 KHz
Compression mode : Lossy
Stream size : 28.6 MiB (11%)

Code:
http://www.secureupload.eu/6svuaqp33szk/btaw_jenna_jessica_julia_kirsten_480p_1000.mp4
vargamester is offline   Reply With Quote
Reply

Tags
266 mb - mp4 - su

Thread Tools Search this Thread
Search this Thread:

Advanced Search
Display Modes Rate This Thread
Rate This Thread:

Posting Rules
You may not post new threads
You may not post replies
You may not post attachments
You may not edit your posts

BB code is On
Smilies are On
[IMG] code is On
HTML code is Off
Trackbacks are On
Pingbacks are On
Refbacks are On


Similar Threads
Thread Thread Starter Forum Replies Last Post
Big Tits At Work 5 DVDRip (2009) wporn18 Full Movies 0 08-27-2012 06:02 PM
Big Tits at Work ? Bring your Tits to Work -Tiffany Mynx wporn18 Clips,Short Movies 0 08-27-2012 03:12 AM
Big White Dicks Fucking Big Chocolate Tits mikchan3108 Full Movies 0 07-21-2012 01:31 AM
Big White Dicks Fucking Big Chocolate Tits - Copy mikchan3108 Full Movies 0 07-15-2012 10:22 AM
Big Tits At Work - Emma Butt mikchan3108 Clips,Short Movies 0 07-15-2012 04:22 AM


All times are GMT. The time now is 10:47 AM.


Powered by vBulletin® Version 3.8.4
Copyright ©2000 - 2019, Jelsoft Enterprises Ltd.
Search Engine Friendly URLs by vBSEO 3.5.2
XXXShare.net 2010 - 2015