Free Porn Share - XXXShare.net
2015 (ea) 7th 2014 alexis amateur anal anita anjelica bay beautiful bianca bimbo black blonde blowjob bobs busty casting cock collection crazier cream cute czech deep dick dirty fetish friend friends fuck fucked fucking girl girls gloria guerlain hard hardcore interracial james kiki lesbian love loves madonna melanie mia milf monroe natasha naughty nicole office part porn pussy scene sexy sweet taylor teen teens tits video videos white young [2014]

Go Back   Free Porn Share - XXXShare.net > Adult videos > Clips,Short Movies
Register FAQ Members List Calendar Search Today's Posts Mark Forums Read

Clips,Short Movies Short videos and movies duration less than 1 hour

Reply
 
LinkBack Thread Tools Search this Thread Rate Thread Display Modes
Old 12-02-2012, 02:11 PM   #1 (permalink)
Posters
 
Join Date: Jun 2012
Posts: 680
Rep Power: 8
vargamester is on a distinguished road
Default Shes Gonna Squirt - Asa Akira - The Butler Serves Anal

Shes Gonna Squirt - Asa Akira - The Butler Serves Anal





General
Complete name : D:\Torrent\sgs_asa_akira_480p_1000.mp4
Format : MPEG-4
Format profile : Base Media
Codec ID : isom
File size : 296 MiB
Duration : 34mn 46s
Overall bit rate : 1 188 Kbps
Writing application : Lavf54.23.101

Video
ID : 1
Format : AVC
Format/Info : Advanced Video Codec
Format profile : [email protected]
Format settings, CABAC : Yes
Format settings, ReFrames : 5 frames
Codec ID : avc1
Codec ID/Info : Advanced Video Coding
Duration : 34mn 46s
Bit rate : 1 000 Kbps
Width : 854 pixels
Height : 480 pixels
Display aspect ratio : 16:9
Frame rate mode : Constant
Frame rate : 29.970 fps
Color space : YUV
Chroma subsampling : 4:2:0
Bit depth : 8 bits
Scan type : Progressive
Bits/(Pixel*Frame) : 0.081
Stream size : 248 MiB (84%)

Audio
ID : 2
Format : AAC
Format/Info : Advanced Audio Codec
Format profile : LC
Codec ID : 40
Duration : 34mn 46s
Duration_LastFrame : -9ms
Bit rate mode : Constant
Bit rate : 128 Kbps
Channel(s) : 2 channels
Channel positions : Front: L R
Sampling rate : 48.0 KHz
Compression mode : Lossy
Stream size : 31.8 MiB (11%)

Code:
http://www.secureupload.eu/02v5llvr2ucj/sgs_asa_akira_480p_1000.mp4
vargamester is offline   Reply With Quote
Reply

Tags
296 mb - mp4 - su

Thread Tools Search this Thread
Search this Thread:

Advanced Search
Display Modes Rate This Thread
Rate This Thread:

Posting Rules
You may not post new threads
You may not post replies
You may not post attachments
You may not edit your posts

BB code is On
Smilies are On
[IMG] code is On
HTML code is Off
Trackbacks are On
Pingbacks are On
Refbacks are On


Similar Threads
Thread Thread Starter Forum Replies Last Post
The Butler Serves Anal Asa Akira arexx Clips,Short Movies 0 12-02-2012 10:22 AM
Brazzers Shes Gonna Squirt The Butler Serves Anal 29 Nov 2012 belerofon Clips,Short Movies 0 11-29-2012 10:49 PM
The Butler Serves Anal - Asa Akira (Brazzers) Mr.Sam Clips,Short Movies 0 11-29-2012 04:32 PM
Shes Gonna Squirt Asa Akira The Butler Serves Anal Nov 29 BruNxUp Clips,Short Movies 0 11-29-2012 10:37 AM
Asa Akira - Asian Anal Assassins, Scene 3 dragon9x Clips,Short Movies 0 09-07-2012 03:12 AM


All times are GMT. The time now is 08:05 AM.


Powered by vBulletin® Version 3.8.4
Copyright ©2000 - 2019, Jelsoft Enterprises Ltd.
Search Engine Friendly URLs by vBSEO 3.5.2
XXXShare.net 2010 - 2015