Free Porn Share - XXXShare.net
2015 (ea) 7th 2014 alexis amateur anal anita anjelica bay beautiful bianca bimbo black blonde blowjob bobs busty casting cock collection crazier cream cute czech deep dick dirty fetish friend friends fuck fucked fucking girl girls gloria guerlain hard hardcore interracial james kiki lesbian love loves madonna melanie mia milf monroe natasha naughty nicole office part porn pussy scene sexy sweet taylor teen teens tits video videos white young [2014]

Go Back   Free Porn Share - XXXShare.net > Adult videos > Clips,Short Movies
Register FAQ Members List Calendar Search Today's Posts Mark Forums Read

Clips,Short Movies Short videos and movies duration less than 1 hour

Reply
 
LinkBack Thread Tools Search this Thread Rate Thread Display Modes
Old 12-07-2012, 07:46 PM   #1 (permalink)
Posters
 
Join Date: Jun 2012
Posts: 680
Rep Power: 8
vargamester is on a distinguished road
Default Woodman Casting X - Bulma Rey - Hard Sofa 1

Woodman Casting X - Bulma Rey - Hard Sofa 1





General
Complete name : D:\Torrent\Bulma Rey - Hard Sofa 960p.mp4
Format : MPEG-4
Format profile : Base Media
Codec ID : isom
File size : 404 MiB
Duration : 20mn 33s
Overall bit rate mode : Variable
Overall bit rate : 2 746 Kbps

Video
ID : 1
Format : MPEG-4 Visual
Format profile : [email protected]
Format settings, BVOP : No
Format settings, QPel : No
Format settings, GMC : No warppoints
Format settings, Matrix : Default (H.263)
Codec ID : 20
Duration : 20mn 33s
Bit rate : 2 696 Kbps
Width : 950 pixels
Height : 560 pixels
Display aspect ratio : 1.696
Frame rate mode : Constant
Frame rate : 25.000 fps
Color space : YUV
Chroma subsampling : 4:2:0
Bit depth : 8 bits
Scan type : Progressive
Compression mode : Lossy
Bits/(Pixel*Frame) : 0.203
Stream size : 396 MiB (98%)
Language : English

Audio
ID : 2
Format : AAC
Format/Info : Advanced Audio Codec
Format profile : LC
Codec ID : 40
Duration : 20mn 33s
Bit rate mode : Variable
Bit rate : 45.4 Kbps
Channel(s) : 2 channels
Channel positions : Front: L R
Sampling rate : 44.1 KHz
Compression mode : Lossy
Stream size : 6.67 MiB (2%)
Language : English

Code:
http://www.secureupload.eu/q5muc8hc8hrn/Bulma_Rey_-_Hard_Sofa_960p.mp4
vargamester is offline   Reply With Quote
Reply

Tags
404 mb - mp4 - su

Thread Tools Search this Thread
Search this Thread:

Advanced Search
Display Modes Rate This Thread
Rate This Thread:

Posting Rules
You may not post new threads
You may not post replies
You may not post attachments
You may not edit your posts

BB code is On
Smilies are On
[IMG] code is On
HTML code is Off
Trackbacks are On
Pingbacks are On
Refbacks are On



All times are GMT. The time now is 09:45 AM.


Powered by vBulletin® Version 3.8.4
Copyright ©2000 - 2019, Jelsoft Enterprises Ltd.
Search Engine Friendly URLs by vBSEO 3.5.2
XXXShare.net 2010 - 2015