Free Porn Share - XXXShare.net
2015 (ea) 7th 2014 alexis amateur anal anita anjelica bay beautiful bianca bimbo black blonde blowjob bobs busty casting cock collection crazier cream cute czech deep dick dirty fetish friend friends fuck fucked fucking girl girls gloria guerlain hard hardcore interracial james kiki lesbian love loves madonna melanie mia milf monroe natasha naughty nicole office part porn pussy scene sexy sweet taylor teen teens tits video videos white young [2014]

Go Back   Free Porn Share - XXXShare.net > Adult videos > Clips,Short Movies
Register FAQ Members List Calendar Search Today's Posts Mark Forums Read

Clips,Short Movies Short videos and movies duration less than 1 hour

Reply
 
LinkBack Thread Tools Search this Thread Rate Thread Display Modes
Old 12-08-2012, 02:40 PM   #1 (permalink)
Posters
 
Join Date: Jun 2012
Posts: 680
Rep Power: 8
vargamester is on a distinguished road
Default Passion HD - Anissa Kate - Deeper Feelings

Passion HD - Anissa Kate - Deeper Feelings





General
Complete name : D:\Torrent\Deeper_Feelings.mp4
Format : MPEG-4
Format profile : Base Media
Codec ID : isom
File size : 174 MiB
Duration : 22mn 4s
Overall bit rate : 1 105 Kbps

Video
ID : 1
Format : AVC
Format/Info : Advanced Video Codec
Format profile : [email protected]
Format settings, CABAC : Yes
Format settings, ReFrames : 5 frames
Codec ID : avc1
Codec ID/Info : Advanced Video Coding
Duration : 22mn 4s
Bit rate : 1 000 Kbps
Width : 750 pixels
Height : 420 pixels
Display aspect ratio : 16:9
Frame rate mode : Constant
Frame rate : 23.976 fps
Color space : YUV
Chroma subsampling : 4:2:0
Bit depth : 8 bits
Scan type : Progressive
Bits/(Pixel*Frame) : 0.132
Stream size : 158 MiB (91%)

Audio
ID : 2
Format : AAC
Format/Info : Advanced Audio Codec
Format profile : LC
Codec ID : 40
Duration : 22mn 4s
Bit rate mode : Constant
Bit rate : 96.0 Kbps
Channel(s) : 2 channels
Channel positions : Front: L R
Sampling rate : 48.0 KHz
Compression mode : Lossy
Delay relative to video : 83ms
Stream size : 15.1 MiB (9%)
Language : English

Code:
http://www.secureupload.eu/dx3go7du2avw/Deeper_Feelings.mp4
vargamester is offline   Reply With Quote
Reply

Tags
174 mb - mp4 - su

Thread Tools Search this Thread
Search this Thread:

Advanced Search
Display Modes Rate This Thread
Rate This Thread:

Posting Rules
You may not post new threads
You may not post replies
You may not post attachments
You may not edit your posts

BB code is On
Smilies are On
[IMG] code is On
HTML code is Off
Trackbacks are On
Pingbacks are On
Refbacks are On


Similar Threads
Thread Thread Starter Forum Replies Last Post
Passion HD ? Anissa Kate arexx Clips,Short Movies 0 11-29-2012 05:51 PM
Passion HD - Anissa Kate - Let's Dance vargamester Clips,Short Movies 0 11-28-2012 03:51 PM
Passion HD Anissa Kate Forbidden Fruit Nov 12 BruNxUp Clips,Short Movies 0 11-17-2012 03:10 AM
SexAndSubmission - Anissa Kate mikchan3108 Clips,Short Movies 0 07-13-2012 03:50 AM
Big Tits, Round Asses ? Anissa Kate HD wporn18 Clips,Short Movies 0 07-04-2012 04:11 PM


All times are GMT. The time now is 03:35 PM.


Powered by vBulletin® Version 3.8.4
Copyright ©2000 - 2019, Jelsoft Enterprises Ltd.
Search Engine Friendly URLs by vBSEO 3.5.2
XXXShare.net 2010 - 2015