Free Porn Share - XXXShare.net
2015 (ea) 7th 2014 alexis amateur anal anita anjelica bay beautiful bianca bimbo black blonde blowjob bobs busty casting cock collection crazier cream cute czech deep dick dirty fetish friend friends fuck fucked fucking girl girls gloria guerlain hard hardcore interracial james kiki lesbian love loves madonna melanie mia milf monroe natasha naughty nicole office part porn pussy scene sexy sweet taylor teen teens tits video videos white young [2014]

Go Back   Free Porn Share - XXXShare.net > Adult videos > Clips,Short Movies
Register FAQ Members List Calendar Search Today's Posts Mark Forums Read

Clips,Short Movies Short videos and movies duration less than 1 hour

Reply
 
LinkBack Thread Tools Search this Thread Rate Thread Display Modes
Old 12-08-2012, 03:12 PM   #1 (permalink)
Posters
 
Join Date: Jun 2012
Posts: 680
Rep Power: 8
vargamester is on a distinguished road
Default Backroom Casting Couch - Jenny

Backroom Casting Couch - Jenny





General
Complete name : I:\Casting\Jenny.wmv
Format : Windows Media
File size : 219 MiB
Duration : 23mn 29s
Overall bit rate mode : Variable
Overall bit rate : 1 304 Kbps
Maximum Overall bit rate : 1 707 Kbps

Video
ID : 2
Format : VC-1
Format profile : [email protected]
Codec ID : WMV3
Codec ID/Info : Windows Media Video 9
Codec ID/Hint : WMV3
Duration : 23mn 27s
Bit rate mode : Variable
Bit rate : 1 200 Kbps
Width : 576 pixels
Height : 324 pixels
Display aspect ratio : 16/9
Frame rate : 29.970 fps
Resolution : 24 bits
Scan type : Progressive
Bits/(Pixel*Frame) : 0.215
Stream size : 201 MiB (92%)
Language : en-us

Audio
ID : 1
Format : WMA2
Format profile : L1
Codec ID : 161
Codec ID/Info : Windows Media Audio 2
Description of the codec : Windows Media Audio 9.2 - 96 kbps, 44 kHz, stereo (A/V) 2-pass CBR
Duration : 23mn 29s
Bit rate mode : Constant
Bit rate : 96.0 Kbps
Channel(s) : 2 channels
Sampling rate : 44.1 KHz
Resolution : 16 bits
Stream size : 16.1 MiB (7%)
Language : en-us

Code:
http://www.secureupload.eu/ysekhl9quich/Jenny.wmv
vargamester is offline   Reply With Quote
Reply

Tags
219 mb - mp4 - su

Thread Tools Search this Thread
Search this Thread:

Advanced Search
Display Modes Rate This Thread
Rate This Thread:

Posting Rules
You may not post new threads
You may not post replies
You may not post attachments
You may not edit your posts

BB code is On
Smilies are On
[IMG] code is On
HTML code is Off
Trackbacks are On
Pingbacks are On
Refbacks are On


Similar Threads
Thread Thread Starter Forum Replies Last Post
Backroom Casting Couch - Khloe hunter Clips,Short Movies 0 10-02-2012 02:15 PM
Backroom casting couch - Mother and Daughter hunter Clips,Short Movies 0 09-18-2012 11:46 PM
Backroom Casting Couch BRCC Natasha E224 Sept 06 BruNxUp Clips,Short Movies 0 09-07-2012 05:47 PM
Backroom casting couch - Kim hunter Clips,Short Movies 0 09-01-2012 08:16 AM
Backroom casting couch - Mother and Daughter hunter Clips,Short Movies 0 08-16-2012 12:55 AM


All times are GMT. The time now is 10:32 AM.


Powered by vBulletin® Version 3.8.4
Copyright ©2000 - 2019, Jelsoft Enterprises Ltd.
Search Engine Friendly URLs by vBSEO 3.5.2
XXXShare.net 2010 - 2015