Free Porn Share - XXXShare.net
2015 (ea) 7th 2014 alexis amateur anal anita anjelica bay beautiful bianca bimbo black blonde blowjob bobs busty casting cock collection crazier cream cute czech deep dick dirty fetish friend friends fuck fucked fucking girl girls gloria guerlain hard hardcore interracial james kiki lesbian love loves madonna melanie mia milf monroe natasha naughty nicole office part porn pussy scene sexy sweet taylor teen teens tits video videos white young [2014]

Go Back   Free Porn Share - XXXShare.net > Adult videos > Clips,Short Movies
Register FAQ Members List Calendar Search Today's Posts Mark Forums Read

Clips,Short Movies Short videos and movies duration less than 1 hour

Reply
 
LinkBack Thread Tools Search this Thread Rate Thread Display Modes
Old 12-09-2012, 08:55 AM   #1 (permalink)
Posters
 
Join Date: Jun 2012
Posts: 680
Rep Power: 8
vargamester is on a distinguished road
Default Nubiles Mischa Brooks Pussy Play

Nubiles Mischa Brooks Pussy Play





General
Complete name : D:\Downloads\Nubiles.12.03.22.Mischa.Brooks.Pussy. Play.XXX.720p.WMV-KTR\ktr.nubiles.12.03.22.mischa.brooks.pussy.play. wmv
Format : Windows Media
File size : 253 MiB
Duration : 9mn 45s
Overall bit rate mode : Constant
Overall bit rate : 3 617 Kbps
Maximum Overall bit rate : 3 658 Kbps

Video
ID : 2
Format : VC-1
Format profile : [email protected]
Codec ID : WMV3
Codec ID/Info : Windows Media Video 9
Codec ID/Hint : WMV3
Description of the codec : Windows Media Video 9 - Professional
Duration : 9mn 45s
Bit rate mode : Constant
Bit rate : 3 500 Kbps
Width : 1 280 pixels
Height : 720 pixels
Display aspect ratio : 16:9
Frame rate : 23.976 fps
Bit depth : 8 bits
Scan type : Progressive
Compression mode : Lossy
Bits/(Pixel*Frame) : 0.158
Stream size : 244 MiB (97%)
Language : English (US)

Audio
ID : 1
Format : WMA
Format version : Version 2
Codec ID : 161
Codec ID/Info : Windows Media Audio
Description of the codec : Windows Media Audio 9.2 - 128 kbps, 48 kHz, stereo 1-pass CBR
Duration : 9mn 45s
Bit rate mode : Constant
Bit rate : 128 Kbps
Channel(s) : 2 channels
Sampling rate : 48.0 KHz
Bit depth : 16 bits
Stream size : 8.94 MiB (4%)
Language : English (US)


Code:
http://www.secureupload.eu/1dj379pn9815/ktr.nubiles.12.03.22.mischa.brooks.pussy.play.wmv
vargamester is offline   Reply With Quote
Reply

Tags
253 mb - wmv - su

Thread Tools Search this Thread
Search this Thread:

Advanced Search
Display Modes Rate This Thread
Rate This Thread:

Posting Rules
You may not post new threads
You may not post replies
You may not post attachments
You may not edit your posts

BB code is On
Smilies are On
[IMG] code is On
HTML code is Off
Trackbacks are On
Pingbacks are On
Refbacks are On


Similar Threads
Thread Thread Starter Forum Replies Last Post
My Sisters Hot Friend Mischa Brooks Sept 27 BruNxUp Clips,Short Movies 0 09-27-2012 08:37 PM
Nubiles ? Tracey Sweet - Pink Pussy Spread HD wporn18 Clips,Short Movies 0 08-06-2012 06:55 PM
Nubiles ? Chloe Blue - Sexy Mirror Play wporn18 Clips,Short Movies 0 08-02-2012 11:06 PM
IHaveAWife - Mischa Brooks Full HD wporn18 Clips,Short Movies 0 08-01-2012 12:05 AM
Nubiles - Alexa Rydell Pink Outfit And Pussy Full HD wporn18 Clips,Short Movies 0 07-16-2012 12:23 AM


All times are GMT. The time now is 05:49 PM.


Powered by vBulletin® Version 3.8.4
Copyright ©2000 - 2020, Jelsoft Enterprises Ltd.
Search Engine Friendly URLs by vBSEO 3.5.2
XXXShare.net 2010 - 2015